Most popular

Code promo pour iphone 6

Ventes flash et occasions, tout est bon sur le site Sosh!Achetez chez Amazon avec ces bons de réductions pendant le Black Friday : Réduction, détails du code, expire.Amazon possède un des taux de satisfaction client le plus élevé.Vous allez faire


Read more

Idée cadeau homme chic

Un bouquet code réduction alice's garden de roses, renoncules, alstroemérias et fleurs de saison dans son camaïeu rose et rouge qui promet de partager de délicieux mots d'amour.Élue meilleure entreprise de livraison de fleurs par les Français (0,20/min prix appel


Read more

Probabilité tirage avec remise

Par exemple, quel est le nombre de mots de deux lettres formés à partir de l'alphabet constitué des lettres A,B et C et avec possibilité de répétition des lettres?C'est ce que j'avais trouvé avec l'arbre.Mais je ne vois toujours pas


Read more

Code promo luberon apiculture


code promo luberon apiculture

Il est suspendu entre ciel et eau à lentrée du Vieux-Port de Marseille.
les tableaux de conjugaison personne aller venir je vais viens tu vas viens il/elle/on va vient nous allons venons vous allez venez ils/elles vont viennent Exercices Entraînez-vous sur le FLE : «Verbes aller - venir» » A1 - Débutant Rubriques Retour haut de page L'Obs.Adriana Dunavska, championne du monde de GRS en 1987 et médaillée d'argent aux Jeux de Séoul en 1988, se souvient d'un «gentil garçon».Il vous reste 80 de cet article à lire.Wav Peak level.9 Extraction speed.2 X Track quality.9 Test CRC 56A01F16 Copy CRC 56A01F16 Track not present in AccurateRip database Copy OK Track 7 Filename D:magicke EAC Rips07 - The Beekeepers - Long Way Down.Wav Peak level.9 Extraction speed.2 X Track quality 100.0 Test CRC 8233219E Copy CRC 8233219E Track not present in AccurateRip database Copy OK Track 9 Filename D:magicke EAC Rips09 - The Beekeepers - Watching.(Visites du circuit, randonnée hors pistes en quad, la tour d'aventure : tyroliennes, quick jump, free jump.) Profitez de venir découvrir en famille le mucem.Mais bientôt les autorités bulgares.Techniquement, il était superbe et ce depuis ses jeunes années.Il répond : « Je suis le premier homme à avoir remporté trois médailles d'or.Même s'il n'est plus aussi dominateur que par le passé, il s'impose pour 2,5 kg de mieux que le Grec Valerios Leonidis (335 kg contre 332,5 kg).Un petit garçon aussi dont la taille adulte ne dépassera pas 1,49 m pour 60 kg, d'où son surnom d' «Hercule de poche».
Pour un petit poids, il avait le gabarit idéal.
The Beekeepers / Apiculture (Promo noor e zindagi episode 19 promo CD) JAL 108.
Découvrez le nouveau pole loisirs Nature et Aventure Xtrem park au Castellet.Used interface : Native Win32 interface for Win NT 2000.Wav Peak level.9 Extraction speed.1 X Track quality 100.0 Test CRC 0A605531 Copy CRC 0A605531 Track not present in AccurateRip database Copy OK Track 10 Filename D:magicke EAC Rips10 - The Beekeepers - Circus Folks.Read mode : Secure, utilize accurate stream : Yes, defeat audio cache : Yes.Used drive : sony CD-RW CRX320E Adapter: 1 ID:.Selected bitrate : 320 kBit/s, quality : High, add ID3 tag :.Copy OK, track 2, filename D:magicke EAC Rips02 - The Beekeepers - So Long.Read offset correction : 6, overread into Lead-In and Lead-Out :.Command line compressor : C:Program Filesflacflac.


Sitemap